Latest topics
Yesterday at 9:59 am
by dungVH
16/7/2018, 7:16 pm
by khazit
16/7/2018, 5:35 pm
14/7/2018, 11:01 am
by khazit
13/7/2018, 5:01 pm
by dungVH
11/7/2018, 6:50 pm
11/7/2018, 5:43 pm

[C67][蒼天の雪] "@"~Charisma~

[C67][蒼天の雪] "@"~Charisma~

Bài gửi by Đom Đóm ~1991~ on 11/6/2017, 9:18 am

"@"~Charisma~




"@"~Charisma~ là album của "circle" Souten no Yuki (蒼天の雪),
được phát hành vào ngày 30/12/2004, nhân dịp Comiket 67.

Chúng ta phải tưởng tượng rằng, thời kỳ đó số album Touhou trong mỗi kỳ Comiket
chưa đếm hết 1 bàn tay. Các circle chuyên nghiệp như bây giờ chưa tồn tại, mà
chỉ có các nghệ sỹ đơn lẻ tụ tập lại với nhau góp vốn ghi đĩa, lấy nghệ danh chung.
Do đặc thù của mô hình hoạt động, nên thông tin về các nhóm nghệ sỹ kiểu này
cũng như các album của họ không được tổng hợp kỹ lưỡng, mà phân tán nhiều nơi.
Các album kiểu này cũng không có thể loại hay phong cách xuyên suốt giống như album
của các circle chuyên nghiệp bây giờ, mà mỗi nghệ sỹ có một phong cách riêng độc đáo.

Hãy nghe "@"~Charisma~, và lội ngược dòng thời gian về 12 năm trước,
để cảm nhận sức sống mãnh liệt của một fandom đang hình thành.

Danh sách nhạc phẩm (trích từ tệp .CUE):

TRACK 01 AUDIO
TITLE "Complete Loudness"
PERFORMER "真中あきひと"
INDEX 01 00:00:00

TRACK 02 AUDIO
TITLE "遙に響け、神了の律率"
PERFORMER "MORRIGAN"
INDEX 01 04:21:55

TRACK 03 AUDIO
TITLE "あの月へ向かって..."
PERFORMER "gp-ln"
INDEX 01 08:29:33

TRACK 04 AUDIO
TITLE "The Court Of The Crimson Evil"
PERFORMER "YS"
INDEX 01 10:55:09

TRACK 05 AUDIO
TITLE "神話幻想 ~Infinite Being~"
PERFORMER "Jun.A"
INDEX 01 14:59:00

TRACK 06 AUDIO
TITLE "冥土革命サクヤ -MILLION KNIFE"
PERFORMER "ビートまりお"
INDEX 01 20:43:47

TRACK 07 AUDIO
TITLE "紅き水の戯れ、誰が為そ -MR1901-"
PERFORMER "MORRIGAN"
INDEX 01 24:34:03

TRACK 08 AUDIO
TITLE "雅なるは、無音狂冥"
PERFORMER "MORRIGAN"
INDEX 01 28:15:04

TRACK 09 AUDIO
TITLE "満月の下で踊る"
PERFORMER "koutaq"
INDEX 01 32:06:69

Track 06 --- "冥土革命サクヤ -MILLION KNIFE"


MP3, 320kbps:

_________________
Waifu
avatar
Đom Đóm ~1991~
Moderator
Xem lý lịch thành viênhttps://gensoviet-firefly.tumblr.com/about

Waifu Order : Trace,b1-58-999,e2-101-999
. :
Online
Though the Scent Lingers

Posts : 1761
Power : 4142
Faith : 1125
Ngày tham gia : 06/11/2014
Địa điểm : Mind Matrix

Về Đầu Trang Go down


Permissions in this forum:
Bạn không có quyền trả lời bài viết